<?xml version="1.0" standalone="no"?>
<!DOCTYPE svg PUBLIC "-//W3C//DTD SVG 1.1//EN" "http://www.w3.org/Graphics/SVG/1.1/DTD/svg11.dtd" >
<svg xmlns="http://www.w3.org/2000/svg">
<metadata></metadata>
<defs>
<font id="feura_sansmedium" horiz-adv-x="518" >
<font-face units-per-em="2048" ascent="1618" descent="-430" />
<missing-glyph horiz-adv-x="500" />
<glyph horiz-adv-x="0" />
<glyph horiz-adv-x="0" />
<glyph unicode="&#xd;" />
<glyph unicode=" " />
<glyph unicode="!" d="M88 143q0 72 50 122t122 50t121 -50t49 -122t-49 -121t-121 -49t-122 49t-50 121zM115 1417h291l-33 -905h-226z" />
<glyph unicode="&#x22;" horiz-adv-x="1011" d="M147 1417h259v-557h-187zM553 1417h258v-557h-186z" />
<glyph unicode="#" horiz-adv-x="1077" d="M16 311v189h168l52 387h-150v190h174l41 301h213l-39 -301h230l40 301h213l-38 -301h141v-190h-168l-51 -387h149v-189h-174l-41 -311h-213l41 311h-231l-41 -311h-213l41 311h-144zM397 500h232l51 387h-231z" />
<glyph unicode="$" horiz-adv-x="1077" d="M20 168l142 156q72 -68 154.5 -107t189.5 -39q109 0 183.5 49t74.5 152q0 41 -11.5 72.5t-40 57.5t-78.5 47.5t-128 45.5q-223 70 -330.5 167t-107.5 255q0 74 26.5 135.5t73.5 107.5t113.5 76.5t144.5 42.5v310h213v-307q111 -14 199 -57.5t159 -114.5l-141 -150 q-72 68 -146.5 98.5t-160.5 30.5t-149.5 -38t-63.5 -122q0 -37 12 -64.5t44 -52t87.5 -48t141.5 -50.5q88 -29 163.5 -61.5t132 -80.5t88 -118t31.5 -170q0 -168 -102.5 -274.5t-294.5 -130.5v-310h-215v306q-125 16 -228.5 65t-175.5 121z" />
<glyph unicode="%" horiz-adv-x="1759" d="M113 1040q0 82 26.5 149.5t74.5 114t112.5 72t138.5 25.5q76 0 139.5 -25.5t110.5 -72t73.5 -114t26.5 -149.5q0 -84 -26.5 -150.5t-73.5 -112.5t-110.5 -71.5t-139.5 -25.5q-74 0 -138.5 25.5t-112.5 71.5t-74.5 112.5t-26.5 150.5zM317 37l949 1427l178 -108 l-950 -1428zM322 1040q0 -35 6 -69.5t21.5 -61t44 -43t71.5 -16.5t71.5 16.5t44 43t21.5 61.5t6 69q0 35 -6 70t-21.5 61.5t-44 43t-71.5 16.5t-71.5 -16.5t-44 -43t-21.5 -61.5t-6 -70zM944 336q0 82 26.5 149.5t75 113.5t113 71.5t137.5 25.5q76 0 139.5 -25.5 t110.5 -71.5t74 -113.5t27 -149.5q0 -84 -27 -150.5t-74 -112.5t-110.5 -72t-139.5 -26q-74 0 -138 26t-112.5 72t-75 112.5t-26.5 150.5zM1153 336q0 -35 6 -70t21.5 -61.5t44 -43t71.5 -16.5t72 16.5t44 43t21.5 61.5t6.5 70t-6.5 69.5t-21.5 61.5t-44 43t-72 16 t-71.5 -16t-44 -43t-21.5 -61.5t-6 -69.5z" />
<glyph unicode="&#x26;" horiz-adv-x="1591" d="M137 356q0 123 65.5 210t196.5 171q-51 47 -89 88t-63.5 81t-38.5 80t-13 87q0 68 24.5 128.5t74.5 104.5t128 69.5t182 25.5q96 0 174 -23.5t132.5 -65.5t83 -100.5t28.5 -128.5q0 -66 -22.5 -118t-61.5 -96t-88 -80.5t-100 -69.5l311 -279q41 68 69.5 149t51.5 173 l227 -66q-39 -125 -86 -223t-100 -176l329 -297h-331l-150 131q-100 -88 -208.5 -123t-217.5 -35q-254 0 -381 103.5t-127 279.5zM410 375q0 -96 63 -150.5t184 -54.5q150 0 265 98l-369 330q-82 -55 -112.5 -105.5t-30.5 -117.5zM449 1065q0 -55 39.5 -103.5t109.5 -107.5 q74 47 121 99.5t47 117.5q0 70 -42 108t-116 38q-78 0 -118.5 -40t-40.5 -112z" />
<glyph unicode="'" horiz-adv-x="606" d="M147 1417h259v-557h-187z" />
<glyph unicode="(" horiz-adv-x="665" d="M51 717q0 186 32 329.5t86 262t126 222t149 210.5l170 -115q-72 -102 -126 -198.5t-90 -202t-54 -229t-18 -279.5t18 -280t54 -229.5t90.5 -202.5t125.5 -198l-170 -114q-78 106 -149.5 209.5t-125.5 222.5t-86 262t-32 330z" />
<glyph unicode=")" horiz-adv-x="665" d="M51 -193q72 100 126 197.5t90 203t54.5 229.5t18.5 280t-18.5 279.5t-54.5 229t-90 202t-126 198.5l170 115q78 -106 149.5 -210t126 -222.5t86 -262t31.5 -329.5t-31.5 -329.5t-86 -262.5t-126 -222.5t-149.5 -209.5z" />
<glyph unicode="*" horiz-adv-x="903" d="M31 1126l67 215l271 -120l-35 299h233l-35 -299l271 120l69 -215l-288 -57l211 -207l-191 -141l-149 254l-142 -260l-194 133l205 221z" />
<glyph unicode="+" horiz-adv-x="1062" d="M115 535v206h305v314h221v-314h305v-206h-305v-312h-221v312h-305z" />
<glyph unicode="," d="M74 -367l84 371q-31 25 -50.5 61.5t-19.5 77.5q0 72 50 122t122 50t121 -50t49 -122q0 -70 -43 -168l-147 -342h-166z" />
<glyph unicode="-" horiz-adv-x="839" d="M109 537v208h620v-208h-620z" />
<glyph unicode="." d="M88 143q0 72 50 122t122 50t121 -50t49 -122t-49 -121t-121 -49t-122 49t-50 121z" />
<glyph unicode="/" horiz-adv-x="1064" d="M178 -172l481 1841l228 -53l-479 -1841z" />
<glyph unicode="0" horiz-adv-x="1179" d="M98 686q0 346 125 530.5t367 184.5t366.5 -184.5t124.5 -530.5t-125 -530.5t-366 -184.5q-242 0 -367 184.5t-125 530.5zM373 686q0 -147 13 -245.5t41 -158t69 -85t94 -25.5t94 25.5t68.5 85t42 158t14.5 245.5t-14.5 245.5t-42 158t-68.5 85t-94 25.5t-94 -25.5 t-69 -85t-41 -158t-13 -245.5z" />
<glyph unicode="1" horiz-adv-x="884" d="M31 1100l446 278h228v-1378h-254v1104l-301 -182z" />
<glyph unicode="2" horiz-adv-x="1073" d="M45 1184q82 104 189.5 160.5t248.5 56.5q111 0 195 -32t141.5 -85t86 -127t28.5 -156q0 -84 -23.5 -164.5t-84 -173t-163 -203t-260.5 -253.5h568l-29 -207h-844v197q176 174 287 291.5t172 204.5t84 153.5t23 138.5q0 98 -54.5 151.5t-146.5 53.5q-74 0 -131.5 -32 t-118.5 -105z" />
<glyph unicode="3" horiz-adv-x="1054" d="M14 174l166 137q59 -72 125 -103.5t146 -31.5q111 0 174 62.5t63 169.5q0 123 -62.5 169t-183.5 46h-96l31 190h63q96 0 155.5 52.5t59.5 152.5q0 84 -53 131t-145 47q-76 0 -137.5 -28.5t-126.5 -88.5l-136 146q92 86 195.5 131t224.5 45q106 0 188.5 -29t137.5 -77 t82.5 -112.5t27.5 -138.5q0 -63 -20.5 -116.5t-56 -93t-83.5 -66.5t-104 -35v-8q59 -4 114.5 -26.5t98.5 -63.5t68.5 -100.5t25.5 -135.5q0 -92 -33.5 -169.5t-97 -134t-155.5 -89.5t-209 -33q-281 0 -447 201z" />
<glyph unicode="4" horiz-adv-x="1136" d="M76 313v176l389 914l217 -84l-332 -807h291l27 344h231v-344h162v-199h-162v-313h-258v313h-565z" />
<glyph unicode="5" horiz-adv-x="1089" d="M49 170l166 139q57 -70 119.5 -100.5t140.5 -30.5q115 0 179.5 73t64.5 195q0 72 -15.5 120t-43 78t-66.5 42t-84 12q-43 0 -81 -9t-83 -32h-192v721h786l-27 -192h-510v-336q53 27 104.5 35t96.5 8q86 0 158 -29.5t122 -87t78.5 -140.5t28.5 -187t-34.5 -191.5 t-100 -151t-160 -98.5t-211.5 -35q-141 0 -247.5 49.5t-188.5 147.5z" />
<glyph unicode="6" horiz-adv-x="1136" d="M98 655q0 164 42 301.5t117 235.5t180.5 153.5t234.5 55.5q72 0 142.5 -22.5t129.5 -63.5l-104 -164q-41 29 -84 41t-82 12q-61 0 -115.5 -30.5t-95.5 -87t-66.5 -138.5t-31.5 -186q68 84 148.5 120t160.5 36q78 0 147.5 -29t121.5 -84t83 -139t31 -195t-35 -202 t-97.5 -156.5t-148.5 -102.5t-186 -37q-131 0 -224.5 49.5t-152.5 139.5t-87 215t-28 278zM367 573q4 -215 55 -310t168 -95q100 0 150.5 79t50.5 212q0 147 -50.5 205.5t-130.5 58.5q-70 0 -133 -41t-110 -109z" />
<glyph unicode="7" horiz-adv-x="950" d="M49 1180v198h846v-180l-510 -1223l-235 74l481 1131h-582z" />
<glyph unicode="8" horiz-adv-x="1169" d="M82 365q0 125 69.5 209.5t190.5 138.5q-111 61 -158 143t-47 180q0 92 39 161t101.5 114t143.5 67.5t167 22.5q92 0 173 -21.5t141.5 -66.5t95 -111.5t34.5 -154.5q0 -86 -55 -165t-170 -141q137 -61 208.5 -153t71.5 -217q0 -84 -34.5 -157t-100 -126t-160 -84 t-212.5 -31q-117 0 -209 30t-156.5 83t-98.5 124t-34 155zM350 375q0 -96 60.5 -151.5t171.5 -55.5q117 0 179 59.5t62 145.5q0 61 -21.5 102t-61.5 70.5t-97 52.5t-129 47q-66 -35 -115 -97.5t-49 -172.5zM393 1032q0 -47 16.5 -82t47 -61.5t74.5 -46t100 -37.5 q84 51 117.5 104.5t33.5 124.5q0 78 -49 128t-145 50q-92 0 -143.5 -47t-51.5 -133z" />
<glyph unicode="9" horiz-adv-x="1134" d="M82 932q0 109 37 195.5t100.5 147t150.5 93.5t187 33q113 0 202 -39t150.5 -109.5t94 -168t32.5 -216.5q0 -207 -48 -358.5t-146.5 -261t-245.5 -182t-344 -119.5l-55 188q246 66 391 180.5t168 294.5q-43 -55 -120 -93t-173 -38q-82 0 -151.5 32t-121 91.5t-80 143 t-28.5 186.5zM344 936q0 -72 15.5 -122t41 -81t60 -45t71.5 -14q72 0 131.5 38t104.5 107v49q0 176 -53 256t-162 80q-92 0 -150.5 -67.5t-58.5 -200.5z" />
<glyph unicode=":" d="M88 143q0 72 50 122t122 50t121 -50t49 -122t-49 -121t-121 -49t-122 49t-50 121zM88 872q0 72 50 122t122 50t121 -50t49 -122t-49 -121t-121 -49t-122 49t-50 121z" />
<glyph unicode=";" d="M74 -367l84 371q-31 25 -50.5 61.5t-19.5 77.5q0 72 50 122t122 50t121 -50t49 -122q0 -70 -43 -168l-147 -342h-166zM88 872q0 72 50 122t122 50t121 -50t49 -122t-49 -121t-121 -49t-122 49t-50 121z" />
<glyph unicode="&#x3c;" horiz-adv-x="1062" d="M117 555v254l776 356l88 -190l-674 -293l674 -287l-88 -196z" />
<glyph unicode="=" horiz-adv-x="1062" d="M117 326v206h831v-206h-831zM117 741v207h831v-207h-831z" />
<glyph unicode="&#x3e;" horiz-adv-x="1062" d="M82 391l676 291l-676 289l88 194l778 -356v-254l-778 -356z" />
<glyph unicode="?" horiz-adv-x="1019" d="M55 1233q90 104 201 157.5t250 53.5q106 0 187 -27.5t134.5 -74t80 -106.5t26.5 -126q0 -84 -26.5 -139.5t-66.5 -95t-86 -70.5t-86 -64.5t-67 -78t-27 -109.5v-41h-262v49q0 86 26 144.5t64.5 101.5t83.5 72.5t84 60.5t65 64.5t26 82.5q0 72 -47.5 109t-133.5 37 q-66 0 -128 -32t-124 -103zM281 143q0 72 50 122t122 50t121 -50t49 -122t-49.5 -121t-120.5 -49q-72 0 -122 49t-50 121z" />
<glyph unicode="@" horiz-adv-x="2088" d="M117 492q0 207 68.5 381t194.5 300.5t305 198.5t400 72q215 0 381 -66.5t279 -178.5t170 -257t57 -305q0 -127 -27.5 -239.5t-81 -197.5t-135 -135.5t-188.5 -50.5q-63 0 -110.5 19.5t-79 49.5t-50 65.5t-24.5 70.5h-8q-33 -78 -103.5 -137t-187.5 -59q-94 0 -163 33.5 t-113 93t-65.5 143.5t-21.5 182q0 258 121 404.5t342 146.5q82 0 168 -21.5t176 -70.5v-582q0 -94 32 -128t79 -34q90 0 138 102.5t48 340.5q0 141 -40 252.5t-119.5 189.5t-198.5 120t-275 42q-178 0 -311 -55.5t-223 -153.5t-135 -234.5t-45 -299.5q0 -166 45 -301.5 t134 -231.5t221 -148.5t304 -52.5q111 0 212.5 20.5t182.5 49.5l68 -195q-98 -37 -214 -59t-251 -22q-215 0 -391 65.5t-302 188t-194.5 295.5t-68.5 389zM860 475q0 -141 35 -209.5t115 -68.5q41 0 70.5 13t51 34.5t36 45t24.5 46.5v487q-53 29 -119 29q-106 0 -159.5 -88 t-53.5 -289z" />
<glyph unicode="A" horiz-adv-x="1218" d="M-6 0l452 1417h330l451 -1417h-285l-94 332h-486l-94 -332h-274zM420 537h373l-183 639h-10z" />
<glyph unicode="B" horiz-adv-x="1284" d="M174 0v1417h426q102 0 198.5 -17.5t170 -59.5t117.5 -111.5t44 -173.5q0 -66 -22.5 -117t-58 -88t-78.5 -60.5t-86 -33.5v-8q51 -10 105 -33t98.5 -62t73 -97t28.5 -144q0 -121 -48 -201t-128 -127t-180.5 -65.5t-204.5 -18.5h-455zM444 207h201q45 0 92 7t85 29.5 t61.5 63.5t23.5 107t-19.5 108.5t-54 67t-80.5 35t-102 10.5h-207v-428zM444 840h189q111 0 166 43t55 147q0 102 -58.5 143t-170.5 41h-181v-374z" />
<glyph unicode="C" horiz-adv-x="1189" d="M102 711q0 178 49.5 315t133.5 229.5t197.5 140.5t240.5 48q139 0 235.5 -40t182.5 -110l-140 -164q-119 100 -262 101q-76 0 -140 -26.5t-112.5 -88t-75 -161t-26.5 -244.5q0 -143 26.5 -242.5t72.5 -161t109.5 -88t137.5 -26.5q109 0 178.5 37.5t122.5 84.5l133 -168 q-70 -68 -178 -121t-266 -53q-135 0 -249 47.5t-195.5 140.5t-128 231t-46.5 319z" />
<glyph unicode="D" horiz-adv-x="1349" d="M174 0v1417h365q129 0 255 -27.5t226 -104.5t162.5 -214t62.5 -356t-61.5 -358.5t-158.5 -218.5t-219 -108.5t-243 -29.5h-389zM444 205h144q72 0 139.5 22.5t119.5 80t84 155.5t32 252q0 162 -33 259t-86 150.5t-120 70.5t-134 17h-146v-1007z" />
<glyph unicode="E" horiz-adv-x="1095" d="M174 0v1417h821l-28 -203h-523v-397h455v-203h-455v-411h560v-203h-830z" />
<glyph unicode="F" horiz-adv-x="1009" d="M174 0v1417h805l-29 -203h-506v-423h439v-203h-439v-588h-270z" />
<glyph unicode="G" horiz-adv-x="1318" d="M102 711q0 180 53.5 317t142.5 229.5t206 139.5t244 47q150 0 257 -46t193 -124l-147 -154q-66 59 -136.5 87t-158.5 28q-74 0 -141.5 -27.5t-118 -90t-81 -163t-30.5 -243.5q0 -145 21.5 -245.5t63.5 -163t104.5 -91.5t146.5 -29q55 0 111.5 12.5t113.5 41.5v356h-229 l-29 203h520v-691q-100 -61 -223.5 -96t-277.5 -35q-291 0 -448 185.5t-157 552.5z" />
<glyph unicode="H" horiz-adv-x="1378" d="M174 0v1417h270v-571h490v571h270v-1417h-270v635h-490v-635h-270z" />
<glyph unicode="I" horiz-adv-x="616" d="M174 0v1417h270v-1417h-270z" />
<glyph unicode="J" horiz-adv-x="634" d="M-16 -86q68 27 110.5 55.5t65 67.5t31 90t8.5 123v1167h270v-1181q0 -123 -33 -211t-89 -149.5t-131 -101.5t-161 -67z" />
<glyph unicode="K" horiz-adv-x="1275" d="M174 0v1417h270v-1417h-270zM457 756l487 661h295l-487 -641l528 -776h-322z" />
<glyph unicode="L" horiz-adv-x="1052" d="M174 0v1417h270v-1200h572l-29 -217h-813z" />
<glyph unicode="M" horiz-adv-x="1640" d="M96 0l111 1417h350l264 -995h8l252 995h353l110 -1417h-264l-53 723q-4 66 -7 137.5t-3 145.5v67q0 35 2 68h-9l-258 -998h-268l-270 998h-8q2 -35 2 -78v-88q0 -66 -1 -133.5t-6 -118.5l-45 -723h-260z" />
<glyph unicode="N" horiz-adv-x="1382" d="M174 0v1417h354l467 -1110h9q-8 66 -17 146q-6 68 -11 156.5t-5 189.5v618h239v-1417h-362l-455 1108h-8q6 -76 14 -158q6 -72 11.5 -160t5.5 -178v-612h-242z" />
<glyph unicode="O" horiz-adv-x="1439" d="M102 709q0 176 44 313t124 230.5t195 142.5t256 49t255 -47t193.5 -140.5t123.5 -230.5t44 -317q0 -176 -44 -313.5t-123.5 -231.5t-193.5 -142.5t-255 -48.5t-256 47.5t-195 140.5t-124 230t-44 318zM385 709q0 -145 23.5 -244.5t66.5 -163t105.5 -91.5t140.5 -28 q80 0 141.5 28t104.5 91.5t65.5 163t22.5 244.5q0 143 -22.5 243.5t-65.5 164t-104.5 91t-141.5 27.5t-142.5 -27.5t-105.5 -91t-65.5 -164t-22.5 -243.5z" />
<glyph unicode="P" horiz-adv-x="1216" d="M174 0v1417h414q133 0 239.5 -25.5t180 -81t113.5 -139t40 -200.5q0 -127 -41 -215t-113.5 -145.5t-174 -83t-220.5 -25.5h-168v-502h-270zM444 702h166q59 0 108.5 12.5t85.5 43t55.5 82t19.5 127.5q0 137 -75 194.5t-200 57.5h-160v-517z" />
<glyph unicode="Q" horiz-adv-x="1439" d="M102 709q0 176 44 313t124 230.5t195 142.5t256 49t255 -47t193.5 -140.5t123.5 -230.5t44 -317q0 -217 -70.5 -370t-191.5 -241q115 -10 208 -49t153 -88l-156 -213q-119 113 -260 174.5t-285 61.5q-147 0 -264 46t-199 136t-126 226t-44 317zM385 709 q0 -145 23.5 -244.5t66.5 -163t105.5 -91.5t140.5 -28q80 0 141.5 28t104.5 91.5t65.5 163t22.5 244.5q0 143 -22.5 243.5t-65.5 164t-104.5 91t-141.5 27.5t-142.5 -27.5t-105.5 -91t-65.5 -164t-22.5 -243.5z" />
<glyph unicode="R" horiz-adv-x="1255" d="M174 0v1417h408q274 0 418.5 -103.5t144.5 -314.5q0 -154 -86 -252t-215 -139l387 -608h-316l-335 567h-136v-567h-270zM444 764h164q125 0 189.5 55t64.5 178q0 113 -62.5 167.5t-199.5 54.5h-156v-455z" />
<glyph unicode="S" horiz-adv-x="1146" d="M37 168l147 170q72 -68 159 -109t200 -41q53 0 100 12.5t83 37t56.5 62.5t20.5 91q0 41 -11.5 73t-42 59.5t-83 51t-134.5 48.5q-113 35 -194.5 76.5t-134.5 94t-79 117t-26 146.5q0 88 36 158.5t99.5 122t150.5 79t191 27.5q147 0 261 -45t206 -133l-143 -160 q-72 70 -148.5 99.5t-162.5 29.5q-92 0 -152.5 -40t-60.5 -124q0 -37 12 -66.5t44 -54t88 -49t147 -53.5q90 -29 166.5 -63.5t132 -85t86 -122t30.5 -171.5q0 -96 -35.5 -176t-103.5 -137.5t-167 -88.5t-224 -31q-166 0 -296 53.5t-218 141.5z" />
<glyph unicode="T" horiz-adv-x="1103" d="M31 1200v217h1061l-31 -217h-369v-1200h-270v1200h-391z" />
<glyph unicode="U" horiz-adv-x="1376" d="M164 469v948h270v-934q0 -154 60.5 -225.5t193.5 -71.5t193.5 72t60.5 225v934h270v-948q0 -109 -32.5 -199t-99 -156.5t-165 -103.5t-227.5 -37q-133 0 -231.5 36t-163 101.5t-97 156.5t-32.5 202z" />
<glyph unicode="V" horiz-adv-x="1263" d="M31 1417h284l318 -1157h8l322 1157h270l-447 -1417h-309z" />
<glyph unicode="W" horiz-adv-x="1765" d="M51 1417h264l191 -1184h8l225 1184h293l225 -1179h9l198 1179h250l-260 -1417h-362l-207 1100h-8l-213 -1100h-349z" />
<glyph unicode="X" horiz-adv-x="1198" d="M6 0l424 752l-393 665h301l252 -487h8l268 487h285l-403 -651l444 -766h-301l-297 575h-8l-293 -575h-287z" />
<glyph unicode="Y" horiz-adv-x="1200" d="M10 1417h291l301 -659h8l301 659h279l-455 -885v-532h-270v530z" />
<glyph unicode="Z" horiz-adv-x="1105" d="M55 0v211l666 987h-594v219h895v-213l-660 -981h666l-31 -223h-942z" />
<glyph unicode="[" horiz-adv-x="665" d="M90 -260v1954h504v-211h-250v-1534h250v-209h-504z" />
<glyph unicode="\" horiz-adv-x="1064" d="M178 1616l228 53l481 -1841l-230 -53z" />
<glyph unicode="]" horiz-adv-x="665" d="M72 -51h250v1534h-250v211h503v-1954h-503v209z" />
<glyph unicode="^" horiz-adv-x="1097" d="M41 1079l387 650h242l387 -650h-271l-239 447l-238 -447h-268z" />
<glyph unicode="_" horiz-adv-x="1064" d="M20 -113h1024v-209h-1024v209z" />
<glyph unicode="`" horiz-adv-x="659" d="M61 1483l119 194l418 -258l-74 -131z" />
<glyph unicode="a" horiz-adv-x="1144" d="M76 311q0 174 131 267.5t387 93.5h129v55q0 106 -52.5 145t-164.5 39q-51 0 -123 -13t-154 -42l-63 184q102 39 199.5 55.5t179.5 16.5q231 0 332.5 -96t101.5 -271v-464q0 -59 16.5 -86t53.5 -41l-62 -179q-86 10 -143.5 42t-87.5 98q-59 -72 -142.5 -107t-181.5 -35 q-166 0 -261 92.5t-95 245.5zM358 324q0 -82 36 -123t116 -41q66 0 119 33.5t94 95.5v221h-96q-154 0 -211.5 -50t-57.5 -136z" />
<glyph unicode="b" horiz-adv-x="1222" d="M164 0v1518l262 28v-579q59 72 137 108.5t166 36.5q109 0 184.5 -41t123.5 -115.5t69.5 -179t21.5 -231.5q0 -121 -27.5 -225.5t-82.5 -181.5t-136 -121t-188 -44q-88 0 -160.5 31t-125.5 96l-13 -100h-231zM426 276q78 -108 199 -108q106 0 165.5 90t59.5 285 q0 203 -54.5 287.5t-150.5 84.5q-66 0 -122 -39.5t-97 -99.5v-500z" />
<glyph unicode="c" horiz-adv-x="989" d="M92 537q0 123 33 228t97.5 182t159.5 121t222 44q92 0 182.5 -28.5t167.5 -94.5l-120 -164q-61 47 -112.5 63.5t-105.5 16.5q-113 0 -179 -88t-66 -280q0 -96 17.5 -164t48 -110t75.5 -60.5t100 -18.5q53 0 102.5 18.5t114.5 65.5l121 -174q-78 -61 -168 -91t-176 -30 q-129 0 -225 41t-160.5 115t-96.5 177.5t-32 230.5z" />
<glyph unicode="d" horiz-adv-x="1228" d="M92 541q0 123 29 227t84 181t135 120t182 43q86 0 157 -26.5t124 -84.5v545l262 -28v-1518h-231l-17 129q-53 -74 -133 -115t-176 -41q-111 0 -188.5 40t-129 115t-75 179.5t-23.5 233.5zM371 541q0 -201 55 -287t154 -86q70 0 126 40t97 99v506q-37 49 -90.5 75.5 t-114.5 26.5q-111 0 -169 -88t-58 -286z" />
<glyph unicode="e" horiz-adv-x="1120" d="M92 543q0 121 32 224t93.5 180t151.5 121t206 44q221 0 342 -142.5t121 -402.5q0 -29 -1 -56.5t-3 -49.5h-667q16 -154 81.5 -219.5t176.5 -65.5q66 0 125 19.5t131 72.5l112 -164q-78 -59 -174 -95t-207 -36q-133 0 -230 41t-161.5 117t-96.5 180.5t-32 231.5zM367 635 h415q-4 139 -52 212t-152 73q-92 0 -146.5 -68t-64.5 -217z" />
<glyph unicode="f" horiz-adv-x="716" d="M27 893v192h163v113q0 74 25 138.5t72 110.5t118.5 72.5t165.5 26.5q88 0 155 -16.5t132 -44.5l-76 -178q-51 23 -96 31t-86 8q-82 0 -113.5 -34t-31.5 -112v-115h256l-29 -192h-227v-893h-265v893h-163z" />
<glyph unicode="g" horiz-adv-x="1134" d="M53 -176q0 37 9.5 81t37.5 85l203 -51q-6 -16 -11 -35t-5 -39q0 -59 57 -93t205 -34q82 0 135 10t84 26.5t43 40t12 50.5q0 29 -9 51.5t-36.5 37.5t-77 26.5t-129.5 17.5q-111 8 -187.5 25.5t-125.5 45t-70.5 67.5t-21.5 93t29.5 98.5t83.5 84.5q-84 51 -131.5 130 t-47.5 181q0 84 31 154.5t89.5 123t144.5 82t194 29.5l551 2v-207l-250 51v-8q59 -37 97 -100.5t38 -147.5q0 -76 -28.5 -141t-84 -113.5t-135 -76t-184.5 -27.5q-61 0 -133 16q-14 -16 -23.5 -31.5t-9.5 -31.5q0 -18 8.5 -32.5t38 -25t85 -18.5t147.5 -16 q119 -10 198.5 -39t127 -72t66.5 -96t19 -113q0 -88 -38.5 -151.5t-109.5 -103.5t-170 -58t-218 -18q-139 0 -234.5 20t-154 57t-84 86.5t-25.5 106.5zM369 725q0 -98 49 -154.5t141 -56.5t138 57.5t46 157.5q0 98 -46 151.5t-138 53.5q-94 0 -142 -58.5t-48 -150.5z" />
<glyph unicode="h" horiz-adv-x="1198" d="M164 0v1516l262 28v-577q68 72 152 108.5t176 36.5q152 0 220 -82t68 -235v-795h-262v776q0 78 -29.5 108.5t-99.5 30.5q-68 0 -125 -42t-100 -99v-774h-262z" />
<glyph unicode="i" horiz-adv-x="567" d="M113 1483q0 70 47 118t125 48q76 0 123 -48t47 -118q0 -72 -47.5 -119t-122.5 -47q-78 0 -125 47t-47 119zM154 0v1085h262v-1085h-262z" />
<glyph unicode="j" horiz-adv-x="567" d="M-61 -258q51 25 91 48.5t67.5 60t42 90t14.5 135.5v1009h262v-985q0 -127 -27 -215t-77 -149.5t-121.5 -104.5t-159.5 -77zM113 1483q0 70 47 118t125 48q76 0 123 -48t47 -118q0 -72 -47.5 -119t-122.5 -47q-78 0 -125 47t-47 119z" />
<glyph unicode="k" horiz-adv-x="1107" d="M164 0v1518l260 28v-1546h-260zM436 594l367 491h276l-362 -473l395 -612h-305z" />
<glyph unicode="l" horiz-adv-x="606" d="M154 250v1268l262 28v-1282q0 -47 15 -64.5t44 -17.5t60 11l57 -183q-39 -16 -85 -26.5t-93 -10.5q-111 0 -185.5 66.5t-74.5 210.5z" />
<glyph unicode="m" horiz-adv-x="1753" d="M164 0v1085h225l23 -131q68 78 149.5 118t167.5 40q203 0 258 -162q68 80 155 121t173 41q147 0 215.5 -82t68.5 -235v-795h-262v758q0 90 -25.5 123.5t-88.5 33.5q-57 0 -112.5 -40.5t-98.5 -100.5v-774h-262v776q0 78 -27 108.5t-86 30.5q-57 0 -112.5 -40.5 t-98.5 -100.5v-774h-262z" />
<glyph unicode="n" horiz-adv-x="1198" d="M164 0v1085h225l23 -131q70 78 158.5 118t183.5 40q152 0 220 -82t68 -235v-795h-262v764q0 86 -28.5 118.5t-100.5 32.5q-68 0 -125 -42t-100 -99v-774h-262z" />
<glyph unicode="o" horiz-adv-x="1202" d="M92 543q0 123 34 227t99.5 180t159.5 119t217 43t217 -42t158.5 -116.5t98.5 -180t34 -230.5q0 -127 -34 -231.5t-98.5 -180.5t-158.5 -117t-217 -41t-218 40t-159.5 115t-98.5 180.5t-34 234.5zM369 543q0 -197 59 -283t174 -86q113 0 172.5 86t59.5 283t-59.5 282.5 t-172.5 85.5q-115 0 -174 -86t-59 -282z" />
<glyph unicode="p" horiz-adv-x="1222" d="M164 -446v1531h225l19 -135q61 78 143 120t178 42q109 0 184.5 -41t123.5 -115.5t69.5 -179t21.5 -231.5q0 -121 -27.5 -225.5t-82.5 -181.5t-136 -121t-188 -44q-80 0 -147.5 26t-120.5 79v-496zM426 276q39 -53 89.5 -78.5t109.5 -25.5q106 0 165.5 88t59.5 283 q0 201 -52.5 286.5t-150.5 85.5q-68 0 -124 -40.5t-97 -100.5v-498z" />
<glyph unicode="q" horiz-adv-x="1222" d="M86 541q0 123 28.5 227t84 181t135.5 120t182 43q195 0 301 -137l17 110h223v-1531l-262 28v527q-53 -68 -131 -102t-164 -34q-111 0 -189 40t-128 115t-73.5 179.5t-23.5 233.5zM365 541q0 -201 55 -285t153 -84q68 0 124.5 38t97.5 97v506q-37 49 -89.5 75.5 t-113.5 26.5q-111 0 -169 -88t-58 -286z" />
<glyph unicode="r" horiz-adv-x="808" d="M158 0v1085h233l23 -198q47 106 119.5 162.5t164.5 56.5q25 0 52.5 -2t52.5 -10l-45 -252q-27 8 -45.5 11t-48.5 3q-49 0 -89 -22.5t-71 -59.5t-51.5 -86t-32.5 -100v-588h-262z" />
<glyph unicode="s" horiz-adv-x="1005" d="M41 127l137 158q133 -109 291 -109q88 0 137 34t49 93q0 31 -10 52.5t-36.5 39t-75 34.5t-123.5 38q-74 20 -133.5 48t-101.5 68t-65.5 91t-23.5 117q0 70 29.5 129t85 102t135.5 66.5t180 23.5q117 0 213 -32.5t164 -82.5l-113 -161q-59 39 -122.5 59t-141.5 20 q-76 0 -119 -28.5t-43 -79.5q0 -29 12.5 -47.5t40 -34.5t74.5 -31.5t115 -34.5q70 -20 131 -45.5t107.5 -63.5t73 -94.5t26.5 -136.5q0 -90 -38 -154.5t-102.5 -107.5t-147.5 -63.5t-171 -20.5q-139 0 -250.5 43t-183.5 111z" />
<glyph unicode="t" horiz-adv-x="770" d="M20 893v192h164v236l262 31v-267h265l-31 -192h-234v-561q0 -78 26 -114t87 -36q55 0 125 41l94 -172q-51 -37 -122.5 -57.5t-141.5 -20.5q-180 0 -255 95.5t-75 259.5v565h-164z" />
<glyph unicode="u" horiz-adv-x="1187" d="M158 297v788h262v-763q0 -84 27.5 -118t97.5 -34q66 0 122 36t95 101v778h262v-1085h-227l-19 131q-59 -78 -143 -118t-182 -40q-154 0 -224.5 85t-70.5 239z" />
<glyph unicode="v" horiz-adv-x="1067" d="M16 1085h285l236 -860h8l235 860h271l-363 -1085h-303z" />
<glyph unicode="w" horiz-adv-x="1550" d="M37 1085h266l146 -878h8l192 878h273l174 -874h8l153 874h254l-233 -1085h-336l-160 786h-8l-170 -786h-325z" />
<glyph unicode="x" horiz-adv-x="1044" d="M0 0l371 571l-330 514h299l180 -356h8l187 356h286l-327 -505l370 -580h-307l-217 416h-8l-223 -416h-289z" />
<glyph unicode="y" horiz-adv-x="1067" d="M16 1085h281l225 -895h8l248 895h271l-359 -1093q-59 -186 -188 -303t-365 -135l-33 196q78 12 133.5 31.5t94.5 49.5t63.5 72t42.5 97h-82z" />
<glyph unicode="z" horiz-adv-x="935" d="M45 0v190l526 687h-479v208h774v-192l-522 -684h535l-29 -209h-805z" />
<glyph unicode="{" horiz-adv-x="665" d="M27 606v221q80 0 116.5 30t32.5 122l-18 416q-8 160 107.5 229.5t340.5 69.5v-195q-113 0 -155.5 -29.5t-38.5 -105.5l20 -350q4 -76 -8 -127t-38 -84t-63.5 -52.5t-84.5 -29.5v-8q47 -10 84.5 -29.5t63.5 -52.5t38 -84t8 -127l-20 -350q-4 -76 39 -106t155 -30v-194 q-225 0 -340.5 69.5t-107.5 229.5l18 416q4 92 -33 121.5t-116 29.5z" />
<glyph unicode="|" horiz-adv-x="806" d="M281 -219v1882h245v-1882h-245z" />
<glyph unicode="}" horiz-adv-x="665" d="M57 -66q113 0 156 30t39 106l-21 350q-4 76 8.5 127t38 84t63.5 52t85 30v8q-47 10 -85 29.5t-63.5 52.5t-38 84t-8.5 127l21 350q4 76 -39 105.5t-156 29.5v195q225 0 341 -70t108 -229l-19 -416q-4 -92 33 -122t117 -30v-221q-80 0 -117 -29.5t-33 -121.5l19 -416 q8 -160 -107.5 -229.5t-341.5 -69.5v194z" />
<glyph unicode="~" horiz-adv-x="1077" d="M72 578q18 39 44.5 77.5t63.5 71.5t85 53.5t114 20.5q70 0 117 -19.5t83.5 -42t67.5 -42t66 -19.5q53 0 82.5 32.5t54.5 75.5l156 -79q-18 -39 -45 -79t-64 -72t-86.5 -52.5t-112.5 -20.5q-70 0 -116.5 19.5t-83.5 42t-68 42t-65 19.5q-53 0 -83 -32.5t-55 -75.5z" />
<glyph unicode="&#xa0;" />
<glyph unicode="&#xa1;" d="M88 854q0 72 49 121t121 49t122 -49t50 -121t-50 -122t-122 -50t-121 50t-49 122zM113 -420l32 905h226l32 -905h-290z" />
<glyph unicode="&#xa2;" horiz-adv-x="980" d="M86 537q0 109 25.5 203t75 167.5t124 122.5t172.5 68v313h209v-309q137 -23 256 -113l-121 -162q-66 47 -115.5 63.5t-103.5 16.5q-115 0 -179 -87t-64 -283q0 -195 63 -275t176 -80q53 0 104.5 18.5t116.5 65.5l117 -172q-59 -47 -121.5 -72.5t-128.5 -35.5v-310h-213 v312q-199 35 -296 180t-97 369z" />
<glyph unicode="&#xa3;" horiz-adv-x="1083" d="M51 0v195q63 16 98 42.5t52.5 60.5t20.5 73t3 80v182h-164v153h164v201q0 88 27 164t81 131t134 87t188 32q254 0 394 -199l-166 -123q-47 66 -96.5 91.5t-114.5 25.5q-92 0 -139.5 -53t-47.5 -154v-203h404v-153h-404v-156q0 -76 -21.5 -149.5t-94.5 -112.5v-8h647 l-29 -207h-936z" />
<glyph unicode="&#xa4;" horiz-adv-x="1298" d="M76 264l184 185q-33 53 -50 114.5t-17 136.5q0 72 17 135.5t48 114.5l-182 185l139 139l186 -184q109 63 250 63t250 -66l182 185l140 -139l-181 -181q31 -53 49.5 -115.5t18.5 -136.5q0 -76 -18.5 -138t-51.5 -116l183 -180l-140 -139l-184 182q-104 -61 -248 -61 q-145 0 -252 61l-184 -184zM412 700q0 -129 59 -200.5t180 -71.5q119 0 178.5 71.5t59.5 200.5t-59.5 201t-178.5 72q-121 0 -180 -72t-59 -201z" />
<glyph unicode="&#xa5;" horiz-adv-x="1101" d="M-14 1378h284l283 -575h8l283 575h272l-366 -663h227v-154h-291v-162h291v-153h-291v-246h-268v246h-289v153h289v162h-289v154h223z" />
<glyph unicode="&#xa6;" horiz-adv-x="806" d="M281 -219v741h245v-741h-245zM281 922v741h245v-741h-245z" />
<glyph unicode="&#xa7;" horiz-adv-x="1062" d="M98 633q0 78 43 138t103 101q-47 41 -76 94.5t-29 120.5q0 72 33 129.5t91.5 98.5t137 63.5t172.5 22.5q113 0 203 -30t164 -81l-100 -168q-57 39 -122 60.5t-143 21.5q-84 0 -129 -26.5t-45 -79.5q0 -29 10.5 -49.5t37 -39t73.5 -37t121 -40.5q80 -25 139.5 -53.5 t99.5 -65.5t59.5 -85t19.5 -114q0 -76 -43.5 -137t-102.5 -102q47 -41 77 -95.5t30 -119.5q0 -72 -32 -130.5t-90.5 -99.5t-140 -62.5t-182.5 -21.5q-115 0 -208 30t-167 81l99 170q59 -39 126.5 -61.5t147.5 -22.5q82 0 132 27.5t50 81.5q0 29 -10 49t-36.5 38.5t-74 37 t-120.5 40.5q-80 25 -139.5 52.5t-99.5 64.5t-59.5 85t-19.5 114zM344 657q0 -37 13.5 -61.5t48 -45t96 -42t157.5 -49.5q55 66 56 129q0 35 -13.5 60.5t-48.5 47t-96 44t-156 51.5q-27 -33 -42 -69t-15 -65z" />
<glyph unicode="&#xa8;" horiz-adv-x="884" d="M61 1497q0 61 44.5 103t103.5 42q63 0 106 -41.5t43 -103.5q0 -61 -43 -103t-106 -42q-59 0 -103.5 42t-44.5 103zM526 1497q0 61 43 103t107 42q61 0 104 -41.5t43 -103.5q0 -61 -43 -103t-104 -42q-63 0 -106.5 42t-43.5 103z" />
<glyph unicode="&#xa9;" horiz-adv-x="1644" d="M147 883q0 141 53.5 264t145.5 215t215 145.5t264 53.5q139 0 262 -53.5t214.5 -145.5t143.5 -215t52 -264t-52 -264t-143.5 -214.5t-214.5 -144.5t-262 -53q-141 0 -264 53t-215 144.5t-145.5 214t-53.5 264.5zM311 883q0 -111 39 -208t107.5 -169t162.5 -114t205 -42 t204 42t162 114t107.5 169t38.5 208t-38.5 208t-107.5 169.5t-162 114.5t-204 42t-205 -42t-162.5 -114.5t-107.5 -170t-39 -207.5zM467 883q0 96 27.5 170.5t75.5 127t114 80t141 27.5q80 0 141.5 -24.5t118.5 -71.5l-92 -119q-41 31 -76.5 44t-74.5 13q-72 0 -121 -57 t-49 -190q0 -125 46 -183.5t120 -58.5q53 0 94 19.5t76 54.5l86 -131q-41 -39 -111 -73t-158 -34q-162 0 -260 103.5t-98 302.5z" />
<glyph unicode="&#xaa;" horiz-adv-x="1228" d="M180 907q0 139 113 216t330 77h98q0 94 -34 130t-136 36q-41 0 -102.5 -11.5t-133.5 -35.5l-61 164q94 35 176 49t154 14q199 0 283.5 -77.5t84.5 -223.5v-362q0 -41 15.5 -62.5t48.5 -32.5l-55 -157q-80 8 -130.5 34.5t-78.5 79.5q-104 -117 -265 -116q-141 0 -224 75.5 t-83 202.5zM436 915q0 -59 28 -88.5t89 -29.5q98 0 168 96v156h-72q-121 0 -167 -35t-46 -99z" />
<glyph unicode="&#xab;" horiz-adv-x="1220" d="M86 506v174l385 442l160 -102l-271 -426l271 -426l-158 -102zM590 506v174l385 442l160 -102l-273 -426l273 -426l-160 -102z" />
<glyph unicode="&#xac;" horiz-adv-x="1062" d="M117 537v206h831v-507h-217v301h-614z" />
<glyph unicode="&#xad;" horiz-adv-x="839" d="M109 537v208h620v-208h-620z" />
<glyph unicode="&#xae;" horiz-adv-x="1228" d="M72 1006q0 113 42 212t115.5 172.5t173 115.5t211.5 42q113 0 212.5 -42t173 -115.5t115.5 -173t42 -211.5q0 -113 -42 -212.5t-115.5 -173t-173 -115.5t-212.5 -42t-212 42t-172.5 115.5t-115.5 173t-42 212.5zM203 1006q0 -88 30.5 -166t86 -136.5t131 -92t163.5 -33.5 t164 33.5t131.5 92t86 136.5t30.5 166t-30.5 165.5t-86 136t-131.5 92.5t-164 34t-163.5 -34t-131 -92.5t-86 -136t-30.5 -165.5zM397 719v586h178q271 -1 271 -181q0 -59 -36 -100t-91 -61l164 -244h-160l-135 217h-51v-217h-140zM537 1047h53q55 0 83.5 18t28.5 61 q0 72 -114 72h-51v-151z" />
<glyph unicode="&#xaf;" horiz-adv-x="733" d="M61 1382v189h611v-189h-611z" />
<glyph unicode="&#xb0;" horiz-adv-x="1030" d="M86 1106q0 82 30.5 144.5t81 105.5t115 65.5t131.5 22.5q68 0 131.5 -22.5t114.5 -65.5t82 -106.5t31 -145.5t-31 -144.5t-82 -105.5t-114.5 -65.5t-131.5 -22.5t-132 22.5t-114.5 65.5t-81 106.5t-30.5 145.5zM283 1106q0 -92 47.5 -134t113.5 -42t114 42t48 132 t-48 133t-114 43t-113.5 -41t-47.5 -133z" />
<glyph unicode="&#xb1;" horiz-adv-x="1062" d="M117 0v207h829v-207h-829zM117 541v207h303v313h223v-313h303v-207h-303v-219h-223v219h-303z" />
<glyph unicode="&#xb2;" horiz-adv-x="819" d="M86 1313q59 72 133 109.5t170 37.5q150 0 228.5 -74t78.5 -180q0 -100 -76.5 -210.5t-252.5 -260.5h356l-23 -157h-589v139q113 100 185.5 173t115.5 128t59 96t16 82q0 51 -32.5 77.5t-79.5 26.5q-41 0 -77 -18t-79 -68z" />
<glyph unicode="&#xb3;" horiz-adv-x="819" d="M70 692l120 109q41 -47 86.5 -68.5t92.5 -21.5q72 0 110.5 34.5t38.5 90.5q0 66 -39 92t-104 26h-82l24 146h56q53 0 88 25.5t35 78.5q0 49 -34 75t-87 26q-88 0 -172 -78l-107 114q66 59 140.5 87t154.5 28q150 0 228.5 -65.5t78.5 -161.5q0 -59 -40 -112.5t-115 -74.5 v-4q76 -14 130 -71.5t54 -135.5q0 -57 -23.5 -106t-68.5 -86t-108.5 -58.5t-145.5 -21.5q-190 0 -311 133z" />
<glyph unicode="&#xb4;" horiz-adv-x="659" d="M61 1421l418 256l119 -192l-463 -193z" />
<glyph unicode="&#xb5;" horiz-adv-x="1196" d="M164 -446v1531h262v-763q0 -84 27.5 -118t97.5 -34q66 0 122 36t95 101v778h262v-1085h-231l-17 127q-45 -66 -112.5 -110t-147.5 -44q-45 0 -78.5 10.5t-58.5 26.5l-4 -6q23 -41 34 -85t11 -89v-248z" />
<glyph unicode="&#xb6;" horiz-adv-x="1583" d="M158 981q0 94 33.5 174t101 138.5t168 91t231.5 32.5h658v-1841l-242 -22v1660h-201v-1638l-241 -22v995q-125 2 -219.5 34.5t-159 91t-97 136.5t-32.5 170z" />
<glyph unicode="&#xb7;" d="M88 690q0 72 50 122t122 50t121 -50t49 -122t-49 -121t-121 -49t-122 49t-50 121z" />
<glyph unicode="&#xb8;" horiz-adv-x="643" d="M61 -455l70 129q31 -16 66.5 -26t70.5 -10q53 0 84 16t31 57q0 49 -45 64.5t-137 15.5l20 242h160v-135q106 -10 153.5 -64.5t47.5 -122.5q0 -106 -79 -165.5t-204 -59.5q-70 0 -133.5 17.5t-104.5 41.5z" />
<glyph unicode="&#xb9;" horiz-adv-x="819" d="M129 1262l307 178h170v-865h-200v656l-181 -101z" />
<glyph unicode="&#xba;" horiz-adv-x="1228" d="M180 1087q0 100 30 184.5t85 146t136 95t183 33.5t183.5 -33.5t136.5 -94t85 -145.5t30 -186q0 -102 -30 -186t-85 -144.5t-136 -94t-184 -33.5q-102 0 -183 32.5t-136 93t-85 144.5t-30 188zM430 1087q0 -150 47 -214t137 -64t137.5 64t47.5 214q0 147 -47 213t-138 66 q-90 0 -137 -65.5t-47 -213.5z" />
<glyph unicode="&#xbb;" horiz-adv-x="1220" d="M86 168l272 426l-272 426l160 102l385 -442v-174l-387 -440zM590 168l270 426l-270 426l158 102l387 -442v-174l-387 -440z" />
<glyph unicode="&#xbc;" horiz-adv-x="1843" d="M127 1262l309 178h168v-865h-201v656q-45 -25 -90 -50.5t-90 -50.5zM428 -88l829 1638l164 -82l-825 -1638zM1087 186v129l246 570l168 -64l-201 -485h150l25 205h178v-205h102v-150h-102v-186h-205v186h-361z" />
<glyph unicode="&#xbd;" horiz-adv-x="1843" d="M127 1262l309 178h168v-865h-201v656q-45 -25 -90 -50.5t-90 -50.5zM428 -88l829 1638l164 -82l-825 -1638zM1174 735q59 70 133.5 108t169.5 38q152 0 230.5 -73t78.5 -179q0 -100 -78 -212t-252 -261h356l-22 -156h-592v137q113 102 185.5 175t115.5 127.5t59.5 96.5 t16.5 80q0 51 -32 79t-81 28q-41 0 -76.5 -18.5t-78.5 -69.5z" />
<glyph unicode="&#xbe;" horiz-adv-x="1843" d="M66 692l120 109q41 -47 86 -68.5t93 -21.5q72 0 110.5 34.5t38.5 90.5q0 66 -39 92t-104 26h-82l24 146h56q53 0 86.5 25.5t33.5 78.5q0 49 -32.5 75t-85.5 26q-88 0 -172 -78l-107 114q66 59 140.5 87t154.5 28q150 0 228.5 -65.5t78.5 -161.5q0 -59 -40 -112.5 t-115 -74.5v-4q76 -14 130 -71.5t54 -135.5q0 -57 -23.5 -106t-68.5 -86t-108.5 -58.5t-145.5 -21.5q-190 0 -311 133zM451 -88l829 1638l166 -82l-828 -1638zM1104 186v129l248 570l168 -64l-201 -485h149l25 205h178v-205h103v-150h-103v-186h-205v186h-362z" />
<glyph unicode="&#xbf;" horiz-adv-x="1019" d="M86 -113q0 82 26.5 138.5t66.5 96.5t87 70.5t87 64.5t66.5 78t26.5 109v41h263v-49q0 -86 -26 -144.5t-64.5 -101.5t-84 -72.5t-84 -60t-64.5 -64.5t-26 -83q0 -72 46.5 -109t132.5 -37q66 0 128 32t124 104l174 -136q-180 -211 -449 -210q-109 0 -189.5 27.5t-134 73.5 t-80 106.5t-26.5 125.5zM397 854q0 72 49.5 121t120.5 49q37 0 68 -13.5t54.5 -37t36.5 -54t13 -65.5t-13 -66.5t-36.5 -55t-54.5 -37t-68 -13.5q-72 0 -121 50t-49 122z" />
<glyph unicode="&#xc0;" horiz-adv-x="1218" d="M-6 0l452 1417h330l451 -1417h-285l-94 332h-486l-94 -332h-274zM339 1735l119 194l418 -258l-74 -131zM420 537h373l-183 639h-10z" />
<glyph unicode="&#xc1;" horiz-adv-x="1218" d="M-6 0l452 1417h330l451 -1417h-285l-94 332h-486l-94 -332h-274zM338 1673l420 256l116 -192l-460 -193zM420 537h373l-183 639h-10z" />
<glyph unicode="&#xc2;" horiz-adv-x="1218" d="M-6 0l452 1417h330l451 -1417h-285l-94 332h-486l-94 -332h-274zM235 1663l295 248h162l293 -248l-99 -113l-276 170l-277 -170zM420 537h373l-183 639h-10z" />
<glyph unicode="&#xc3;" horiz-adv-x="1218" d="M-6 0l452 1417h330l451 -1417h-285l-94 332h-486l-94 -332h-274zM238 1657q16 43 41 82t56.5 68.5t72.5 47t90 17.5q47 0 80 -15.5t57.5 -35t46 -34.5t46.5 -15q41 0 62 23.5t46 66.5l143 -66q-16 -43 -40.5 -81t-57.5 -67.5t-73 -47t-89 -17.5q-47 0 -79.5 15.5t-57 34 t-46 33.5t-46.5 15q-39 0 -61.5 -23.5t-47.5 -66.5zM420 537h373l-183 639h-10z" />
<glyph unicode="&#xc4;" horiz-adv-x="1218" d="M-6 0l452 1417h330l451 -1417h-285l-94 332h-486l-94 -332h-274zM230 1749q0 61 43 103t104 42q63 0 105.5 -42t42.5 -103t-42.5 -103t-105.5 -42q-61 0 -104 42t-43 103zM420 537h373l-183 639h-10zM695 1749q0 61 43 103t104 42t105.5 -42t44.5 -103t-44.5 -103 t-105.5 -42t-104 42t-43 103z" />
<glyph unicode="&#xc5;" horiz-adv-x="1218" d="M-6 0l452 1417h330l451 -1417h-285l-94 332h-486l-94 -332h-274zM342 1761q0 51 19.5 95.5t54 78t83.5 53t109 19.5q57 0 106.5 -19.5t85 -53t55 -78t19.5 -95.5t-19.5 -96t-55 -79t-85 -53.5t-106.5 -19.5q-59 0 -108.5 19.5t-84 53.5t-54 79t-19.5 96zM420 537h373 l-183 639h-10zM503 1761q0 -53 29 -81.5t76 -28.5t75.5 28.5t28.5 81.5t-28.5 82t-75.5 29t-76 -29t-29 -82z" />
<glyph unicode="&#xc6;" horiz-adv-x="1675" d="M-35 0l561 1417h1014l-29 -203h-598l93 -397h520v-203h-471l96 -411h467v-203h-688l-70 332h-502l-120 -332h-273zM430 537h387l-139 651h-10z" />
<glyph unicode="&#xc7;" horiz-adv-x="1189" d="M102 711q0 178 49.5 315t133.5 229.5t197.5 140.5t240.5 48q139 0 235.5 -40t182.5 -110l-140 -164q-119 100 -262 101q-76 0 -140 -26.5t-112.5 -88t-75 -161t-26.5 -244.5q0 -143 26.5 -242.5t72.5 -161t109.5 -88t137.5 -26.5q109 0 178.5 37.5t122.5 84.5l133 -168 q-66 -66 -167 -116.5t-246 -57.5v-75q106 -10 154 -64.5t48 -122.5q0 -106 -79.5 -165.5t-202.5 -59.5q-72 0 -134.5 17.5t-103.5 41.5l70 129q31 -16 65.5 -26t69.5 -10q53 0 85 16t32 57q0 49 -46 64.5t-139 15.5l17 195q-109 20 -199 77.5t-153.5 148.5t-98.5 216 t-35 283z" />
<glyph unicode="&#xc8;" horiz-adv-x="1095" d="M174 0v1417h821l-28 -203h-523v-397h455v-203h-455v-411h560v-203h-830zM311 1735l119 194l418 -258l-74 -131z" />
<glyph unicode="&#xc9;" horiz-adv-x="1095" d="M174 0v1417h821l-28 -203h-523v-397h455v-203h-455v-411h560v-203h-830zM326 1673l420 256l116 -192l-460 -193z" />
<glyph unicode="&#xca;" horiz-adv-x="1095" d="M174 0v1417h821l-28 -203h-523v-397h455v-203h-455v-411h560v-203h-830zM198 1663l295 248h162l293 -248l-99 -113l-276 170l-277 -170z" />
<glyph unicode="&#xcb;" horiz-adv-x="1095" d="M174 0v1417h821l-28 -203h-523v-397h455v-203h-455v-411h560v-203h-830zM195 1749q0 61 43 103t104 42q63 0 105.5 -42t42.5 -103t-42.5 -103t-105.5 -42q-61 0 -104 42t-43 103zM660 1749q0 61 43 103t104 42t105.5 -42t44.5 -103t-44.5 -103t-105.5 -42t-104 42 t-43 103z" />
<glyph unicode="&#xcc;" horiz-adv-x="616" d="M40 1735l119 194l418 -258l-74 -131zM174 0v1417h270v-1417h-270z" />
<glyph unicode="&#xcd;" horiz-adv-x="616" d="M39 1673l420 256l116 -192l-460 -193zM174 0v1417h270v-1417h-270z" />
<glyph unicode="&#xce;" horiz-adv-x="616" d="M-68 1663l295 248h162l293 -248l-99 -113l-276 170l-277 -170zM174 0v1417h270v-1417h-270z" />
<glyph unicode="&#xcf;" horiz-adv-x="616" d="M-71 1749q0 61 43 103t104 42q63 0 105.5 -42t42.5 -103t-42.5 -103t-105.5 -42q-61 0 -104 42t-43 103zM174 0v1417h270v-1417h-270zM394 1749q0 61 43 103t104 42t105.5 -42t44.5 -103t-44.5 -103t-105.5 -42t-104 42t-43 103z" />
<glyph unicode="&#xd0;" horiz-adv-x="1355" d="M23 631v182h157v604h365q129 0 255 -27.5t227 -104.5t163.5 -214t62.5 -356t-61.5 -358.5t-159.5 -218.5t-220 -108.5t-243 -29.5h-389v631h-157zM451 205h143q72 0 140.5 22.5t120.5 80t84 155.5t32 252q0 162 -33 259t-87 150.5t-120.5 70.5t-134.5 17h-145v-399h313 v-182h-313v-426z" />
<glyph unicode="&#xd1;" horiz-adv-x="1382" d="M174 0v1417h354l467 -1110h9q-8 66 -17 146q-6 68 -11 156.5t-5 189.5v618h239v-1417h-362l-455 1108h-8q6 -76 14 -158q6 -72 11.5 -160t5.5 -178v-612h-242zM313 1657q16 43 41 82t56.5 68.5t72.5 47t90 17.5q47 0 80 -15.5t57.5 -35t46 -34.5t46.5 -15q41 0 62 23.5 t46 66.5l143 -66q-16 -43 -40.5 -81t-57.5 -67.5t-73 -47t-89 -17.5q-47 0 -79.5 15.5t-57 34t-46 33.5t-46.5 15q-39 0 -61.5 -23.5t-47.5 -66.5z" />
<glyph unicode="&#xd2;" horiz-adv-x="1439" d="M102 709q0 176 44 313t124 230.5t195 142.5t256 49t255 -47t193.5 -140.5t123.5 -230.5t44 -317q0 -176 -44 -313.5t-123.5 -231.5t-193.5 -142.5t-255 -48.5t-256 47.5t-195 140.5t-124 230t-44 318zM385 709q0 -145 23.5 -244.5t66.5 -163t105.5 -91.5t140.5 -28 q80 0 141.5 28t104.5 91.5t65.5 163t22.5 244.5q0 143 -22.5 243.5t-65.5 164t-104.5 91t-141.5 27.5t-142.5 -27.5t-105.5 -91t-65.5 -164t-22.5 -243.5zM452 1735l119 194l418 -258l-74 -131z" />
<glyph unicode="&#xd3;" horiz-adv-x="1439" d="M102 709q0 176 44 313t124 230.5t195 142.5t256 49t255 -47t193.5 -140.5t123.5 -230.5t44 -317q0 -176 -44 -313.5t-123.5 -231.5t-193.5 -142.5t-255 -48.5t-256 47.5t-195 140.5t-124 230t-44 318zM385 709q0 -145 23.5 -244.5t66.5 -163t105.5 -91.5t140.5 -28 q80 0 141.5 28t104.5 91.5t65.5 163t22.5 244.5q0 143 -22.5 243.5t-65.5 164t-104.5 91t-141.5 27.5t-142.5 -27.5t-105.5 -91t-65.5 -164t-22.5 -243.5zM451 1673l420 256l116 -192l-460 -193z" />
<glyph unicode="&#xd4;" horiz-adv-x="1439" d="M102 709q0 176 44 313t124 230.5t195 142.5t256 49t255 -47t193.5 -140.5t123.5 -230.5t44 -317q0 -176 -44 -313.5t-123.5 -231.5t-193.5 -142.5t-255 -48.5t-256 47.5t-195 140.5t-124 230t-44 318zM344 1663l295 248h162l293 -248l-99 -113l-276 170l-277 -170z M385 709q0 -145 23.5 -244.5t66.5 -163t105.5 -91.5t140.5 -28q80 0 141.5 28t104.5 91.5t65.5 163t22.5 244.5q0 143 -22.5 243.5t-65.5 164t-104.5 91t-141.5 27.5t-142.5 -27.5t-105.5 -91t-65.5 -164t-22.5 -243.5z" />
<glyph unicode="&#xd5;" horiz-adv-x="1439" d="M102 709q0 176 44 313t124 230.5t195 142.5t256 49t255 -47t193.5 -140.5t123.5 -230.5t44 -317q0 -176 -44 -313.5t-123.5 -231.5t-193.5 -142.5t-255 -48.5t-256 47.5t-195 140.5t-124 230t-44 318zM348 1657q16 43 41 82t56.5 68.5t72.5 47t90 17.5q47 0 80 -15.5 t57.5 -35t46 -34.5t46.5 -15q41 0 62 23.5t46 66.5l143 -66q-16 -43 -40.5 -81t-57.5 -67.5t-73 -47t-89 -17.5q-47 0 -79.5 15.5t-57 34t-46 33.5t-46.5 15q-39 0 -61.5 -23.5t-47.5 -66.5zM385 709q0 -145 23.5 -244.5t66.5 -163t105.5 -91.5t140.5 -28q80 0 141.5 28 t104.5 91.5t65.5 163t22.5 244.5q0 143 -22.5 243.5t-65.5 164t-104.5 91t-141.5 27.5t-142.5 -27.5t-105.5 -91t-65.5 -164t-22.5 -243.5z" />
<glyph unicode="&#xd6;" horiz-adv-x="1439" d="M102 709q0 176 44 313t124 230.5t195 142.5t256 49t255 -47t193.5 -140.5t123.5 -230.5t44 -317q0 -176 -44 -313.5t-123.5 -231.5t-193.5 -142.5t-255 -48.5t-256 47.5t-195 140.5t-124 230t-44 318zM340 1749q0 61 43 103t104 42q63 0 105.5 -42t42.5 -103t-42.5 -103 t-105.5 -42q-61 0 -104 42t-43 103zM385 709q0 -145 23.5 -244.5t66.5 -163t105.5 -91.5t140.5 -28q80 0 141.5 28t104.5 91.5t65.5 163t22.5 244.5q0 143 -22.5 243.5t-65.5 164t-104.5 91t-141.5 27.5t-142.5 -27.5t-105.5 -91t-65.5 -164t-22.5 -243.5zM805 1749 q0 61 43 103t104 42t105.5 -42t44.5 -103t-44.5 -103t-105.5 -42t-104 42t-43 103z" />
<glyph unicode="&#xd7;" horiz-adv-x="1062" d="M147 369l236 235l-236 238l150 149l235 -237l236 235l147 -147l-235 -234l235 -237l-147 -150l-238 238l-235 -236z" />
<glyph unicode="&#xd8;" horiz-adv-x="1439" d="M100 709q0 176 44 313t124 230.5t193.5 142.5t255.5 49q63 0 110 -8l78 254l215 -58l-84 -268q141 -84 219 -248.5t78 -406.5q0 -176 -44 -313.5t-124 -231.5t-193.5 -142.5t-254.5 -48.5q-29 0 -54.5 2t-50.5 7l-75 -258l-215 57l81 268q-143 82 -223 247t-80 413z M383 709q0 -186 33 -296t94 -163l285 979q-37 6 -78 6q-80 0 -141.5 -27.5t-104.5 -91t-65.5 -164t-22.5 -243.5zM645 188q33 -6 72 -6q80 0 141.5 28t104.5 91.5t65.5 163t22.5 244.5q0 182 -31 289.5t-88 160.5z" />
<glyph unicode="&#xd9;" horiz-adv-x="1376" d="M164 469v948h270v-934q0 -154 60.5 -225.5t193.5 -71.5t193.5 72t60.5 225v934h270v-948q0 -109 -32.5 -199t-99 -156.5t-165 -103.5t-227.5 -37q-133 0 -231.5 36t-163 101.5t-97 156.5t-32.5 202zM405 1735l119 194l418 -258l-74 -131z" />
<glyph unicode="&#xda;" horiz-adv-x="1376" d="M164 469v948h270v-934q0 -154 60.5 -225.5t193.5 -71.5t193.5 72t60.5 225v934h270v-948q0 -109 -32.5 -199t-99 -156.5t-165 -103.5t-227.5 -37q-133 0 -231.5 36t-163 101.5t-97 156.5t-32.5 202zM432 1673l420 256l116 -192l-460 -193z" />
<glyph unicode="&#xdb;" horiz-adv-x="1376" d="M164 469v948h270v-934q0 -154 60.5 -225.5t193.5 -71.5t193.5 72t60.5 225v934h270v-948q0 -109 -32.5 -199t-99 -156.5t-165 -103.5t-227.5 -37q-133 0 -231.5 36t-163 101.5t-97 156.5t-32.5 202zM313 1663l295 248h162l293 -248l-99 -113l-276 170l-277 -170z" />
<glyph unicode="&#xdc;" horiz-adv-x="1376" d="M164 469v948h270v-934q0 -154 60.5 -225.5t193.5 -71.5t193.5 72t60.5 225v934h270v-948q0 -109 -32.5 -199t-99 -156.5t-165 -103.5t-227.5 -37q-133 0 -231.5 36t-163 101.5t-97 156.5t-32.5 202zM308 1749q0 61 43 103t104 42q63 0 105.5 -42t42.5 -103t-42.5 -103 t-105.5 -42q-61 0 -104 42t-43 103zM773 1749q0 61 43 103t104 42t105.5 -42t44.5 -103t-44.5 -103t-105.5 -42t-104 42t-43 103z" />
<glyph unicode="&#xdd;" horiz-adv-x="1200" d="M10 1417h291l301 -659h8l301 659h279l-455 -885v-532h-270v530zM344 1673l420 256l116 -192l-460 -193z" />
<glyph unicode="&#xde;" horiz-adv-x="1222" d="M174 0v1417h270v-235h158q266 0 420 -112t154 -345q0 -125 -40 -215t-113 -148.5t-173 -86t-223 -27.5h-183v-248h-270zM444 449h187q123 0 192.5 61t69.5 213q0 135 -69.5 197.5t-198.5 62.5h-181v-534z" />
<glyph unicode="&#xdf;" horiz-adv-x="1245" d="M164 0v1085q0 223 118.5 342t338.5 119q94 0 166.5 -23.5t123 -65.5t77 -99.5t26.5 -124.5q0 -72 -33 -118t-73 -83t-72.5 -70.5t-32.5 -78.5q0 -43 28.5 -75t72.5 -62.5t95.5 -64.5t95.5 -79t72.5 -107.5t28.5 -150.5q0 -92 -31.5 -160.5t-87 -116t-128 -71 t-154.5 -23.5t-151 17.5t-122 50.5l92 176q35 -18 74 -28.5t70 -10.5q78 0 124 39t46 119q0 59 -28 101t-68.5 75t-89 63.5t-89.5 67.5t-68.5 86t-27.5 119q0 72 33 116t71.5 79.5t71.5 71.5t33 93q0 25 -7 49.5t-24.5 45t-46.5 34t-74 13.5q-92 0 -140 -58.5t-48 -191.5 v-1100h-262z" />
<glyph unicode="&#xe0;" horiz-adv-x="1144" d="M76 311q0 174 131 267.5t387 93.5h129v55q0 106 -52.5 145t-164.5 39q-51 0 -123 -13t-154 -42l-63 184q102 39 199.5 55.5t179.5 16.5q231 0 332.5 -96t101.5 -271v-464q0 -59 16.5 -86t53.5 -41l-62 -179q-86 10 -143.5 42t-87.5 98q-59 -72 -142.5 -107t-181.5 -35 q-166 0 -261 92.5t-95 245.5zM286 1468l119 195l414 -270l-78 -131zM358 324q0 -82 36 -123t116 -41q66 0 119 33.5t94 95.5v221h-96q-154 0 -211.5 -50t-57.5 -136z" />
<glyph unicode="&#xe1;" horiz-adv-x="1144" d="M76 311q0 174 131 267.5t387 93.5h129v55q0 106 -52.5 145t-164.5 39q-51 0 -123 -13t-154 -42l-63 184q102 39 199.5 55.5t179.5 16.5q231 0 332.5 -96t101.5 -271v-464q0 -59 16.5 -86t53.5 -41l-62 -179q-86 10 -143.5 42t-87.5 98q-59 -72 -142.5 -107t-181.5 -35 q-166 0 -261 92.5t-95 245.5zM286 1395l416 270l117 -195l-455 -206zM358 324q0 -82 36 -123t116 -41q66 0 119 33.5t94 95.5v221h-96q-154 0 -211.5 -50t-57.5 -136z" />
<glyph unicode="&#xe2;" horiz-adv-x="1144" d="M76 311q0 174 131 267.5t387 93.5h129v55q0 106 -52.5 145t-164.5 39q-51 0 -123 -13t-154 -42l-63 184q102 39 199.5 55.5t179.5 16.5q231 0 332.5 -96t101.5 -271v-464q0 -59 16.5 -86t53.5 -41l-62 -179q-86 10 -143.5 42t-87.5 98q-59 -72 -142.5 -107t-181.5 -35 q-166 0 -261 92.5t-95 245.5zM180 1386l293 269h162l293 -269l-105 -116l-268 194l-270 -194zM358 324q0 -82 36 -123t116 -41q66 0 119 33.5t94 95.5v221h-96q-154 0 -211.5 -50t-57.5 -136z" />
<glyph unicode="&#xe3;" horiz-adv-x="1144" d="M76 311q0 174 131 267.5t387 93.5h129v55q0 106 -52.5 145t-164.5 39q-51 0 -123 -13t-154 -42l-63 184q102 39 199.5 55.5t179.5 16.5q231 0 332.5 -96t101.5 -271v-464q0 -59 16.5 -86t53.5 -41l-62 -179q-86 10 -143.5 42t-87.5 98q-59 -72 -142.5 -107t-181.5 -35 q-166 0 -261 92.5t-95 245.5zM182 1391q35 86 98.5 150.5t162.5 64.5q47 0 79.5 -15.5t58 -35t47 -35t46.5 -15.5q39 0 60.5 23.5t45.5 68.5l144 -65q-35 -86 -98.5 -150.5t-161.5 -64.5q-47 0 -80 15.5t-57.5 33.5t-46 33.5t-46.5 15.5q-39 0 -61.5 -23.5t-46.5 -66.5z M358 324q0 -82 36 -123t116 -41q66 0 119 33.5t94 95.5v221h-96q-154 0 -211.5 -50t-57.5 -136z" />
<glyph unicode="&#xe4;" horiz-adv-x="1144" d="M76 311q0 174 131 267.5t387 93.5h129v55q0 106 -52.5 145t-164.5 39q-51 0 -123 -13t-154 -42l-63 184q102 39 199.5 55.5t179.5 16.5q231 0 332.5 -96t101.5 -271v-464q0 -59 16.5 -86t53.5 -41l-62 -179q-86 10 -143.5 42t-87.5 98q-59 -72 -142.5 -107t-181.5 -35 q-166 0 -261 92.5t-95 245.5zM180 1483q0 61 43 103t105 42q63 0 106 -42t43 -103t-43 -103.5t-106 -42.5q-61 0 -104.5 42t-43.5 104zM358 324q0 -82 36 -123t116 -41q66 0 119 33.5t94 95.5v221h-96q-154 0 -211.5 -50t-57.5 -136zM645 1483q0 61 43 103t105 42 q61 0 105 -42t44 -103t-44 -103.5t-105 -42.5t-104.5 42t-43.5 104z" />
<glyph unicode="&#xe5;" horiz-adv-x="1144" d="M76 311q0 174 131 267.5t387 93.5h129v55q0 106 -52.5 145t-164.5 39q-51 0 -123 -13t-154 -42l-63 184q102 39 199.5 55.5t179.5 16.5q231 0 332.5 -96t101.5 -271v-464q0 -59 16.5 -86t53.5 -41l-62 -179q-86 10 -143.5 42t-87.5 98q-59 -72 -142.5 -107t-181.5 -35 q-166 0 -261 92.5t-95 245.5zM286 1495q0 51 19.5 96t55.5 79t85 53.5t109 19.5q57 0 106 -19.5t85 -53.5t55.5 -79t19.5 -96t-19.5 -95t-55.5 -78t-85 -53.5t-106 -19.5q-59 0 -108.5 19.5t-85.5 53.5t-55.5 78t-19.5 95zM358 324q0 -82 36 -123t116 -41q66 0 119 33.5 t94 95.5v221h-96q-154 0 -211.5 -50t-57.5 -136zM450 1495q0 -53 28 -82t77 -29q47 0 75.5 29t28.5 82t-28.5 83t-75.5 30q-49 0 -77 -30t-28 -83z" />
<glyph unicode="&#xe6;" horiz-adv-x="1736" d="M76 311q0 174 130 267.5t386 93.5h131v55q0 106 -52.5 145t-164.5 39q-51 0 -124 -13t-155 -42l-61 184q102 39 198.5 55.5t180.5 16.5q129 0 205.5 -40t119.5 -107q53 68 129 107.5t181 39.5q223 0 340.5 -142.5t117.5 -402.5q0 -29 -1 -56.5t-3 -49.5h-667 q16 -154 83.5 -219.5t178.5 -65.5q68 0 127 19.5t131 72.5l112 -164q-78 -59 -174 -95t-208 -36q-139 0 -233.5 44t-154.5 124q-137 -168 -380 -168q-180 0 -276.5 92.5t-96.5 245.5zM358 324q0 -82 36 -123t116 -41q72 0 133.5 42t104.5 115q-10 45 -17.5 92.5t-7.5 100.5 h-98q-154 0 -210.5 -50t-56.5 -136zM965 635h417q-4 139 -52 212t-152 73q-94 0 -147.5 -68t-65.5 -217z" />
<glyph unicode="&#xe7;" horiz-adv-x="989" d="M92 537q0 123 33 228t97.5 182t159.5 121t222 44q92 0 182.5 -28.5t167.5 -94.5l-120 -164q-61 47 -112.5 63.5t-105.5 16.5q-113 0 -179 -88t-66 -280q0 -96 17.5 -164t48 -110t75.5 -60.5t100 -18.5q53 0 102.5 18.5t114.5 65.5l121 -174q-72 -55 -149.5 -83.5 t-155.5 -35.5v-77q106 -10 154.5 -64.5t48.5 -122.5q0 -106 -79 -165.5t-204 -59.5q-70 0 -133 17.5t-104 41.5l69 129q31 -16 67 -26t71 -10q53 0 83.5 16t30.5 57q0 49 -46 64.5t-138 15.5l18 193q-197 35 -294 183t-97 370z" />
<glyph unicode="&#xe8;" horiz-adv-x="1120" d="M92 543q0 121 32 224t93.5 180t151.5 121t206 44q221 0 342 -142.5t121 -402.5q0 -29 -1 -56.5t-3 -49.5h-667q16 -154 81.5 -219.5t176.5 -65.5q66 0 125 19.5t131 72.5l112 -164q-78 -59 -174 -95t-207 -36q-133 0 -230 41t-161.5 117t-96.5 180.5t-32 231.5zM305 1468 l119 195l414 -270l-78 -131zM367 635h415q-4 139 -52 212t-152 73q-92 0 -146.5 -68t-64.5 -217z" />
<glyph unicode="&#xe9;" horiz-adv-x="1120" d="M92 543q0 121 32 224t93.5 180t151.5 121t206 44q221 0 342 -142.5t121 -402.5q0 -29 -1 -56.5t-3 -49.5h-667q16 -154 81.5 -219.5t176.5 -65.5q66 0 125 19.5t131 72.5l112 -164q-78 -59 -174 -95t-207 -36q-133 0 -230 41t-161.5 117t-96.5 180.5t-32 231.5zM303 1395 l416 270l117 -195l-455 -206zM367 635h415q-4 139 -52 212t-152 73q-92 0 -146.5 -68t-64.5 -217z" />
<glyph unicode="&#xea;" horiz-adv-x="1120" d="M92 543q0 121 32 224t93.5 180t151.5 121t206 44q221 0 342 -142.5t121 -402.5q0 -29 -1 -56.5t-3 -49.5h-667q16 -154 81.5 -219.5t176.5 -65.5q66 0 125 19.5t131 72.5l112 -164q-78 -59 -174 -95t-207 -36q-133 0 -230 41t-161.5 117t-96.5 180.5t-32 231.5zM196 1386 l293 269h162l293 -269l-105 -116l-268 194l-270 -194zM367 635h415q-4 139 -52 212t-152 73q-92 0 -146.5 -68t-64.5 -217z" />
<glyph unicode="&#xeb;" horiz-adv-x="1120" d="M92 543q0 121 32 224t93.5 180t151.5 121t206 44q221 0 342 -142.5t121 -402.5q0 -29 -1 -56.5t-3 -49.5h-667q16 -154 81.5 -219.5t176.5 -65.5q66 0 125 19.5t131 72.5l112 -164q-78 -59 -174 -95t-207 -36q-133 0 -230 41t-161.5 117t-96.5 180.5t-32 231.5zM188 1483 q0 61 43 103t105 42q63 0 106 -42t43 -103t-43 -103.5t-106 -42.5q-61 0 -104.5 42t-43.5 104zM367 635h415q-4 139 -52 212t-152 73q-92 0 -146.5 -68t-64.5 -217zM653 1483q0 61 43 103t105 42q61 0 105 -42t44 -103t-44 -103.5t-105 -42.5t-104.5 42t-43.5 104z" />
<glyph unicode="&#xec;" horiz-adv-x="567" d="M18 1468l119 195l414 -270l-78 -131zM154 0v1085h262v-1085h-262z" />
<glyph unicode="&#xed;" horiz-adv-x="567" d="M16 1395l416 270l117 -195l-455 -206zM154 0v1085h262v-1085h-262z" />
<glyph unicode="&#xee;" horiz-adv-x="567" d="M-90 1386l293 269h162l293 -269l-105 -116l-268 194l-270 -194zM154 0v1085h262v-1085h-262z" />
<glyph unicode="&#xef;" horiz-adv-x="567" d="M-97 1483q0 61 43 103t105 42q63 0 106 -42t43 -103t-43 -103.5t-106 -42.5q-61 0 -104.5 42t-43.5 104zM154 0v1085h262v-1085h-262zM368 1483q0 61 43 103t105 42q61 0 105 -42t44 -103t-44 -103.5t-105 -42.5t-104.5 42t-43.5 104z" />
<glyph unicode="&#xf0;" horiz-adv-x="1175" d="M92 483q0 117 34 211t91 161t133 102.5t160 35.5q88 0 152.5 -26.5t107.5 -67.5q-27 98 -75 177t-126 138l-137 -139l-180 86l141 146q-86 33 -190 55l55 186q80 -16 151.5 -36.5t135.5 -47.5l147 156l146 -129l-115 -119q190 -127 273 -331.5t83 -489.5 q0 -127 -35.5 -232.5t-102.5 -182.5t-159 -120t-204 -43q-102 0 -190.5 34t-154 98.5t-103.5 159.5t-38 218zM356 492q0 -170 62.5 -246t159.5 -76q104 0 169.5 84t65.5 268q0 84 -6 162q-43 55 -101.5 85t-136.5 30q-43 0 -80.5 -17.5t-67.5 -54.5t-47.5 -95.5 t-17.5 -139.5z" />
<glyph unicode="&#xf1;" horiz-adv-x="1198" d="M164 0v1085h225l23 -131q70 78 158.5 118t183.5 40q152 0 220 -82t68 -235v-795h-262v764q0 86 -28.5 118.5t-100.5 32.5q-68 0 -125 -42t-100 -99v-774h-262zM254 1391q35 86 98.5 150.5t162.5 64.5q47 0 79.5 -15.5t58 -35t47 -35t46.5 -15.5q39 0 60.5 23.5t45.5 68.5 l144 -65q-35 -86 -98.5 -150.5t-161.5 -64.5q-47 0 -80 15.5t-57.5 33.5t-46 33.5t-46.5 15.5q-39 0 -61.5 -23.5t-46.5 -66.5z" />
<glyph unicode="&#xf2;" horiz-adv-x="1202" d="M92 543q0 123 34 227t99.5 180t159.5 119t217 43t217 -42t158.5 -116.5t98.5 -180t34 -230.5q0 -127 -34 -231.5t-98.5 -180.5t-158.5 -117t-217 -41t-218 40t-159.5 115t-98.5 180.5t-34 234.5zM336 1468l119 195l414 -270l-78 -131zM369 543q0 -197 59 -283t174 -86 q113 0 172.5 86t59.5 283t-59.5 282.5t-172.5 85.5q-115 0 -174 -86t-59 -282z" />
<glyph unicode="&#xf3;" horiz-adv-x="1202" d="M92 543q0 123 34 227t99.5 180t159.5 119t217 43t217 -42t158.5 -116.5t98.5 -180t34 -230.5q0 -127 -34 -231.5t-98.5 -180.5t-158.5 -117t-217 -41t-218 40t-159.5 115t-98.5 180.5t-34 234.5zM333 1395l416 270l117 -195l-455 -206zM369 543q0 -197 59 -283t174 -86 q113 0 172.5 86t59.5 283t-59.5 282.5t-172.5 85.5q-115 0 -174 -86t-59 -282z" />
<glyph unicode="&#xf4;" horiz-adv-x="1202" d="M92 543q0 123 34 227t99.5 180t159.5 119t217 43t217 -42t158.5 -116.5t98.5 -180t34 -230.5q0 -127 -34 -231.5t-98.5 -180.5t-158.5 -117t-217 -41t-218 40t-159.5 115t-98.5 180.5t-34 234.5zM227 1386l293 269h162l293 -269l-105 -116l-268 194l-270 -194zM369 543 q0 -197 59 -283t174 -86q113 0 172.5 86t59.5 283t-59.5 282.5t-172.5 85.5q-115 0 -174 -86t-59 -282z" />
<glyph unicode="&#xf5;" horiz-adv-x="1202" d="M92 543q0 123 34 227t99.5 180t159.5 119t217 43t217 -42t158.5 -116.5t98.5 -180t34 -230.5q0 -127 -34 -231.5t-98.5 -180.5t-158.5 -117t-217 -41t-218 40t-159.5 115t-98.5 180.5t-34 234.5zM229 1391q35 86 98.5 150.5t162.5 64.5q47 0 79.5 -15.5t58 -35t47 -35 t46.5 -15.5q39 0 60.5 23.5t45.5 68.5l144 -65q-35 -86 -98.5 -150.5t-161.5 -64.5q-47 0 -80 15.5t-57.5 33.5t-46 33.5t-46.5 15.5q-39 0 -61.5 -23.5t-46.5 -66.5zM369 543q0 -197 59 -283t174 -86q113 0 172.5 86t59.5 283t-59.5 282.5t-172.5 85.5q-115 0 -174 -86 t-59 -282z" />
<glyph unicode="&#xf6;" horiz-adv-x="1202" d="M92 543q0 123 34 227t99.5 180t159.5 119t217 43t217 -42t158.5 -116.5t98.5 -180t34 -230.5q0 -127 -34 -231.5t-98.5 -180.5t-158.5 -117t-217 -41t-218 40t-159.5 115t-98.5 180.5t-34 234.5zM221 1483q0 61 43 103t105 42q63 0 106 -42t43 -103t-43 -103.5 t-106 -42.5q-61 0 -104.5 42t-43.5 104zM369 543q0 -197 59 -283t174 -86q113 0 172.5 86t59.5 283t-59.5 282.5t-172.5 85.5q-115 0 -174 -86t-59 -282zM686 1483q0 61 43 103t105 42q61 0 105 -42t44 -103t-44 -103.5t-105 -42.5t-104.5 42t-43.5 104z" />
<glyph unicode="&#xf7;" horiz-adv-x="1062" d="M117 537v206h831v-206h-831zM365 225q0 70 48 119t119 49q70 0 119 -49t49 -119t-49 -118t-119 -48q-72 0 -119.5 48t-47.5 118zM365 1057q0 68 48 117t119 49q70 0 119 -49.5t49 -116.5q0 -70 -49 -119t-119 -49q-72 0 -119.5 49t-47.5 119z" />
<glyph unicode="&#xf8;" horiz-adv-x="1202" d="M92 543q0 123 34 227t99.5 180t159.5 119t217 43q37 0 78 -6l80 252l201 -62l-84 -258q113 -72 173 -199.5t60 -295.5q0 -127 -34 -231.5t-98.5 -180.5t-158.5 -117t-217 -41q-41 0 -78 7l-80 -259l-202 60l86 262q-115 70 -175.5 198t-60.5 302zM367 543q0 -217 71 -297 l209 661q-12 4 -24 4h-21q-115 0 -175 -85.5t-60 -282.5zM557 178q10 -4 21 -4h24q113 0 173.5 86t60.5 283q0 109 -17.5 179.5t-52.5 111.5z" />
<glyph unicode="&#xf9;" horiz-adv-x="1187" d="M158 297v788h262v-763q0 -84 27.5 -118t97.5 -34q66 0 122 36t95 101v778h262v-1085h-227l-19 131q-59 -78 -143 -118t-182 -40q-154 0 -224.5 85t-70.5 239zM311 1468l119 195l414 -270l-78 -131z" />
<glyph unicode="&#xfa;" horiz-adv-x="1187" d="M158 297v788h262v-763q0 -84 27.5 -118t97.5 -34q66 0 122 36t95 101v778h262v-1085h-227l-19 131q-59 -78 -143 -118t-182 -40q-154 0 -224.5 85t-70.5 239zM350 1395l416 270l117 -195l-455 -206z" />
<glyph unicode="&#xfb;" horiz-adv-x="1187" d="M158 297v788h262v-763q0 -84 27.5 -118t97.5 -34q66 0 122 36t95 101v778h262v-1085h-227l-19 131q-59 -78 -143 -118t-182 -40q-154 0 -224.5 85t-70.5 239zM217 1386l293 269h162l293 -269l-105 -116l-268 194l-270 -194z" />
<glyph unicode="&#xfc;" horiz-adv-x="1187" d="M158 297v788h262v-763q0 -84 27.5 -118t97.5 -34q66 0 122 36t95 101v778h262v-1085h-227l-19 131q-59 -78 -143 -118t-182 -40q-154 0 -224.5 85t-70.5 239zM211 1483q0 61 43 103t105 42q63 0 106 -42t43 -103t-43 -103.5t-106 -42.5q-61 0 -104.5 42t-43.5 104z M676 1483q0 61 43 103t105 42q61 0 105 -42t44 -103t-44 -103.5t-105 -42.5t-104.5 42t-43.5 104z" />
<glyph unicode="&#xfd;" horiz-adv-x="1067" d="M16 1085h281l225 -895h8l248 895h271l-359 -1093q-59 -186 -188 -303t-365 -135l-33 196q78 12 133.5 31.5t94.5 49.5t63.5 72t42.5 97h-82zM294 1395l416 270l117 -195l-455 -206z" />
<glyph unicode="&#xfe;" horiz-adv-x="1224" d="M172 -446v1964l262 28v-579q59 72 137 108.5t166 36.5q106 0 183 -41t124.5 -115.5t70 -179t22.5 -231.5q0 -121 -28 -225.5t-83 -181.5t-137 -121t-189 -44q-80 0 -147.5 26t-118.5 79v-496zM434 276q39 -53 89 -78.5t108 -25.5q106 0 166.5 88t60.5 283 q0 203 -54.5 287.5t-150.5 84.5q-66 0 -122 -39.5t-97 -99.5v-500z" />
<glyph unicode="&#xff;" horiz-adv-x="1067" d="M16 1085h281l225 -895h8l248 895h271l-359 -1093q-59 -186 -188 -303t-365 -135l-33 196q78 12 133.5 31.5t94.5 49.5t63.5 72t42.5 97h-82zM151 1483q0 61 43 103t105 42q63 0 106 -42t43 -103t-43 -103.5t-106 -42.5q-61 0 -104.5 42t-43.5 104zM616 1483q0 61 43 103 t105 42q61 0 105 -42t44 -103t-44 -103.5t-105 -42.5t-104.5 42t-43.5 104z" />
<glyph unicode="&#x152;" horiz-adv-x="1900" d="M111 709q0 176 45 313t124.5 230.5t190.5 142.5t242 49q106 0 192 -27h887l-29 -203h-589q51 -76 77.5 -175t34.5 -222h410v-203h-410q-12 -260 -119 -411h641v-203h-907q-82 -27 -188 -27q-133 0 -244 47.5t-190.5 140.5t-123.5 230t-44 318zM393 709 q0 -145 23.5 -244.5t66.5 -163t101.5 -91.5t128.5 -28q86 0 144 28t95 91.5t53.5 163t16.5 244.5q0 143 -18.5 243.5t-57.5 164t-96 91t-137 27.5q-72 0 -130.5 -27.5t-100.5 -91t-65.5 -164t-23.5 -243.5z" />
<glyph unicode="&#x153;" horiz-adv-x="1824" d="M94 543q0 123 34 227t97.5 180t155.5 119t211 43q129 0 218 -52t146 -145q53 88 134 142.5t200 54.5q223 0 342 -143.5t119 -401.5q0 -29 -1 -57.5t-3 -50.5h-668q16 -152 84 -218.5t178 -66.5q66 0 126.5 20.5t131.5 73.5l113 -166q-78 -59 -175 -95t-208 -36 q-141 0 -231 51.5t-144 139.5q-59 -90 -146 -139.5t-216 -49.5q-119 0 -211 40t-155.5 115t-97.5 180.5t-34 234.5zM373 543q0 -197 56 -283t169 -86t172 86t59 283t-58 282.5t-173 85.5q-113 0 -169 -86t-56 -282zM1077 633h418q-4 139 -52.5 212t-154.5 73q-92 0 -145 -68 t-66 -217z" />
<glyph unicode="&#x178;" horiz-adv-x="1200" d="M10 1417h291l301 -659h8l301 659h279l-455 -885v-532h-270v530zM219 1749q0 61 43 103t104 42q63 0 105.5 -42t42.5 -103t-42.5 -103t-105.5 -42q-61 0 -104 42t-43 103zM684 1749q0 61 43 103t104 42t105.5 -42t44.5 -103t-44.5 -103t-105.5 -42t-104 42t-43 103z" />
<glyph unicode="&#x2c6;" horiz-adv-x="870" d="M61 1415l295 254h162l291 -254l-100 -117l-273 181l-272 -181z" />
<glyph unicode="&#x2dc;" horiz-adv-x="862" d="M61 1405q16 43 41 82t56.5 68.5t71.5 47t89 17.5q47 0 80 -15.5t58.5 -35t47 -34.5t46.5 -15q39 0 61.5 23.5t46.5 66.5l142 -66q-16 -43 -40 -81t-56.5 -67.5t-72.5 -47t-89 -17.5q-47 0 -80 15.5t-58.5 34t-47 34t-46.5 15.5q-39 0 -61.5 -24t-46.5 -67z" />
<glyph unicode="&#x2000;" horiz-adv-x="1003" />
<glyph unicode="&#x2001;" horiz-adv-x="2007" />
<glyph unicode="&#x2002;" horiz-adv-x="1003" />
<glyph unicode="&#x2003;" horiz-adv-x="2007" />
<glyph unicode="&#x2004;" horiz-adv-x="669" />
<glyph unicode="&#x2005;" horiz-adv-x="501" />
<glyph unicode="&#x2006;" horiz-adv-x="334" />
<glyph unicode="&#x2007;" horiz-adv-x="334" />
<glyph unicode="&#x2008;" horiz-adv-x="250" />
<glyph unicode="&#x2009;" horiz-adv-x="401" />
<glyph unicode="&#x200a;" horiz-adv-x="111" />
<glyph unicode="&#x2010;" horiz-adv-x="839" d="M109 537v208h620v-208h-620z" />
<glyph unicode="&#x2011;" horiz-adv-x="839" d="M109 537v208h620v-208h-620z" />
<glyph unicode="&#x2012;" horiz-adv-x="839" d="M109 537v208h620v-208h-620z" />
<glyph unicode="&#x2013;" horiz-adv-x="1064" d="M55 537v208h955v-208h-955z" />
<glyph unicode="&#x2014;" horiz-adv-x="1638" d="M55 537v208h1528v-208h-1528z" />
<glyph unicode="&#x2018;" horiz-adv-x="497" d="M86 1133q0 29 8 62.5t31 80.5l145 305h148l-76 -328q29 -23 45 -53t16 -67q0 -66 -47 -111t-112 -45q-66 0 -112 45t-46 111z" />
<glyph unicode="&#x2019;" horiz-adv-x="497" d="M82 977l76 328q-60 46 -60 120q0 63 47.5 109.5t110.5 46.5q33 0 62.5 -12.5t51 -34t34 -50t12.5 -59.5t-9.5 -64.5t-31.5 -80.5l-146 -303h-147z" />
<glyph unicode="&#x201a;" horiz-adv-x="497" d="M82 -338l76 328q-29 23 -44.5 53.5t-15.5 67.5q0 66 47.5 110.5t110.5 44.5q66 0 113 -45t47 -110q0 -55 -41 -144l-146 -305h-147z" />
<glyph unicode="&#x201c;" horiz-adv-x="907" d="M86 1133q0 29 8 62.5t31 80.5l145 305h148l-76 -328q29 -23 45 -53t16 -67q0 -66 -47 -111t-112 -45q-66 0 -112 45t-46 111zM496 1133q0 29 8 62.5t31 80.5l145 305h147l-73 -328q27 -23 43 -53t16 -67q0 -66 -47 -111t-113 -45t-111.5 45t-45.5 111z" />
<glyph unicode="&#x201d;" horiz-adv-x="907" d="M82 977l76 328q-60 46 -60 120q0 63 47.5 109.5t110.5 46.5q33 0 62.5 -12.5t51 -34t34 -50t12.5 -59.5t-9.5 -64.5t-31.5 -80.5l-146 -303h-147zM494 977l73 328q-27 23 -43 53t-16 67q0 63 47 109.5t113 46.5t111.5 -46t45.5 -110q0 -31 -8 -64.5t-31 -80.5l-145 -303 h-147z" />
<glyph unicode="&#x201e;" horiz-adv-x="907" d="M82 -338l76 328q-29 23 -44.5 53.5t-15.5 67.5q0 66 47.5 110.5t110.5 44.5q66 0 113 -45t47 -110q0 -55 -41 -144l-146 -305h-147zM494 -338l73 328q-27 23 -43 53.5t-16 67.5q0 66 47 110.5t113 44.5t111.5 -45t45.5 -110q0 -29 -8 -63t-31 -81l-145 -305h-147z" />
<glyph unicode="&#x2022;" horiz-adv-x="792" d="M115 700q0 61 21.5 112.5t59 88.5t89 58.5t110.5 21.5q61 0 112.5 -21.5t89.5 -59.5t59.5 -89t21.5 -113q0 -61 -21.5 -112t-59.5 -88t-89.5 -58.5t-112.5 -21.5q-59 0 -110.5 21.5t-89 59.5t-59 90t-21.5 111z" />
<glyph unicode="&#x2026;" horiz-adv-x="1556" d="M88 143q0 72 50 122t122 50t121 -50t49 -122t-49 -121t-121 -49t-122 49t-50 121zM608 143q0 72 49.5 122t120.5 50q72 0 122 -50t50 -122t-50 -121t-122 -49t-121 49t-49 121zM1126 143q0 72 50.5 122t121.5 50q72 0 121 -50t49 -122t-49 -121t-121 -49t-122 49t-50 121 z" />
<glyph unicode="&#x202f;" horiz-adv-x="401" />
<glyph unicode="&#x2039;" horiz-adv-x="716" d="M86 506v174l385 442l160 -102l-271 -426l271 -426l-158 -102z" />
<glyph unicode="&#x203a;" horiz-adv-x="722" d="M86 168l272 426l-272 426l160 102l385 -442v-174l-387 -440z" />
<glyph unicode="&#x205f;" horiz-adv-x="501" />
<glyph unicode="&#x20ac;" horiz-adv-x="1204" d="M45 455l39 153h141v164h-178l37 154h164q27 115 79 204t122.5 149t158.5 91t187 31q123 0 207.5 -30t156.5 -77l-112 -172q-57 39 -115 56.5t-121 17.5q-109 0 -183.5 -60.5t-107.5 -209.5h475l-39 -154h-456v-164h422l-39 -153h-367q27 -150 98.5 -213.5t196.5 -63.5 q92 0 172 31t127 70v-236q-57 -31 -140 -50.5t-175 -19.5q-229 0 -368.5 123t-182.5 359h-199z" />
<glyph unicode="&#x2122;" horiz-adv-x="1839" d="M47 1257v160h737l-30 -160h-238v-653h-217v653h-252zM834 604l28 813h279l149 -524h10l134 524h280l29 -813h-193l-14 420q0 23 -1 44.5t-1 43.5v59q0 31 4 66h-8l-148 -549h-174l-170 549h-8q2 -23 3 -50.5t1 -62.5v-47q0 -23 -2 -51l-14 -422h-184z" />
<glyph unicode="&#xe000;" horiz-adv-x="1085" d="M0 0v1085h1085v-1085h-1085z" />
<glyph unicode="&#xfb01;" horiz-adv-x="1212" />
<glyph unicode="&#xfb02;" horiz-adv-x="1249" />
</font>
</defs>
</svg>
